osu file format v14

[General]
AudioFilename: unfinished.mp3
AudioLeadIn: 1500
PreviewTime: 41278
Countdown: 0
SampleSet: None
StackLeniency: 0.7
Mode: 3
LetterboxInBreaks: 0
WidescreenStoryboard: 1

[Editor]
DistanceSpacing: 0.8
BeatDivisor: 4
GridSize: 32
TimelineZoom: 1.3

[Metadata]
Title:Anime OP/ED Fantasy
TitleUnicode:Anime OP/ED Fantasy
Artist:Various Artist
ArtistUnicode:Various Artist
Creator:bima fajar
Version:Unfinished [4k SC]
Source:
Tags:log horizon log horizon 2 bleach 11eyes black bullet C3 shikyubu romeo x juliet naruto attack on titan chaos dragon sekiryuu sen'eki accel world mahouka koukou no rettousei
BeatmapID:828907
BeatmapSetID:378584

[Difficulty]
HPDrainRate:8
CircleSize:4
OverallDifficulty:8
ApproachRate:5
SliderMultiplier:1.4
SliderTickRate:1

[Events]
//Background and Video events
0,0,"Accel World.jpg",0,0
//Break Periods
//Storyboard Layer 0 (Background)
//Storyboard Layer 1 (Fail)
//Storyboard Layer 2 (Pass)
//Storyboard Layer 3 (Foreground)
//Storyboard Sound Samples

[TimingPoints]
438,410.958904109589,4,2,0,100,1,0

[HitObjects]
192,192,746,5,0,0:0:0:0:
320,192,746,1,0,0:0:0:0:
448,192,1054,1,0,0:0:0:0:
320,192,1157,1,0,0:0:0:0:
64,192,1157,1,0,0:0:0:0:
448,192,1259,1,0,0:0:0:0:
192,192,1362,1,0,0:0:0:0:
320,192,1362,1,0,0:0:0:0:
64,192,1568,1,0,0:0:0:0:
192,192,1670,1,0,0:0:0:0:
320,192,1773,1,0,0:0:0:0:
448,192,1876,1,0,0:0:0:0:
64,192,1876,1,0,0:0:0:0:
192,192,1979,1,0,0:0:0:0:
320,192,2081,1,0,0:0:0:0:
448,192,2184,1,0,0:0:0:0:
320,192,2287,1,0,0:0:0:0:
192,192,2390,1,0,0:0:0:0:
448,192,2390,1,0,0:0:0:0:
320,192,2492,1,0,0:0:0:0:
192,192,2595,1,0,0:0:0:0:
320,192,2801,1,0,0:0:0:0:
448,192,2801,1,0,0:0:0:0:
64,192,2903,1,0,0:0:0:0:
320,192,3006,1,0,0:0:0:0:
448,192,3006,1,0,0:0:0:0:
64,192,3109,1,0,0:0:0:0:
448,192,3211,1,0,0:0:0:0:
192,192,3211,1,0,0:0:0:0:
320,192,3314,1,0,0:0:0:0:
64,192,3417,1,0,0:0:0:0:
192,192,3520,1,0,0:0:0:0:
320,192,3622,1,0,0:0:0:0:
448,192,3725,1,0,0:0:0:0:
64,192,3725,1,0,0:0:0:0:
192,192,3828,1,0,0:0:0:0:
320,192,3931,1,0,0:0:0:0:
64,192,4033,1,0,0:0:0:0:
448,192,4033,1,0,0:0:0:0:
64,192,4136,1,0,0:0:0:0:
192,192,4136,1,0,0:0:0:0:
448,192,4239,1,0,0:0:0:0:
320,192,4239,1,0,0:0:0:0:
448,192,4444,1,0,0:0:0:0:
320,192,4444,1,0,0:0:0:0:
448,192,4547,1,0,0:0:0:0:
320,192,4650,1,0,0:0:0:0:
192,192,4650,1,0,0:0:0:0:
448,192,4855,1,0,0:0:0:0:
320,192,4958,1,0,0:0:0:0:
192,192,4958,1,0,0:0:0:0:
448,192,5164,1,0,0:0:0:0:
320,192,5164,1,0,0:0:0:0:
192,192,5266,1,0,0:0:0:0:
64,192,5369,1,0,0:0:0:0:
320,192,5574,1,0,0:0:0:0:
448,192,5574,1,0,0:0:0:0:
64,192,5677,1,0,0:0:0:0:
192,192,5677,1,0,0:0:0:0:
448,192,5883,1,0,0:0:0:0:
64,192,5985,1,0,0:0:0:0:
192,192,6088,1,0,0:0:0:0:
320,192,6191,1,0,0:0:0:0:
448,192,6191,1,0,0:0:0:0:
64,192,6294,1,0,0:0:0:0:
192,192,6396,1,0,0:0:0:0:
448,192,6499,1,0,0:0:0:0:
320,192,6499,1,0,0:0:0:0:
64,192,6602,1,0,0:0:0:0:
192,192,6705,1,0,0:0:0:0:
320,192,6705,1,0,0:0:0:0:
448,192,6705,1,0,0:0:0:0:
64,192,6807,1,0,0:0:0:0:
192,192,6807,1,0,0:0:0:0:
448,192,6910,1,0,0:0:0:0:
320,192,6910,1,0,0:0:0:0:
448,192,7013,1,0,0:0:0:0:
320,192,7013,1,0,0:0:0:0:
64,192,7116,1,0,0:0:0:0:
192,192,7116,1,0,0:0:0:0:
448,192,7218,1,0,0:0:0:0:
320,192,7218,1,0,0:0:0:0:
64,192,7321,1,0,0:0:0:0:
192,192,7321,1,0,0:0:0:0:
448,192,7321,1,0,0:0:0:0:
320,192,7424,1,0,0:0:0:0:
64,192,7527,1,0,0:0:0:0:
192,192,7527,1,0,0:0:0:0:
448,192,7527,1,0,0:0:0:0:
320,192,7527,1,0,0:0:0:0:
64,192,7732,1,0,0:0:0:0:
448,192,7732,1,0,0:0:0:0:
320,192,7835,1,0,0:0:0:0:
192,192,8040,1,0,0:0:0:0:
64,192,8040,1,0,0:0:0:0:
448,192,8143,1,0,0:0:0:0:
320,192,8143,1,0,0:0:0:0:
64,192,8348,128,0,9273:0:0:0:0:
192,192,8348,128,0,9376:0:0:0:0:
320,192,8554,1,0,0:0:0:0:
448,192,8554,1,0,0:0:0:0:
320,192,8759,1,0,0:0:0:0:
448,192,8759,1,0,0:0:0:0:
320,192,8965,1,0,0:0:0:0:
448,192,8965,1,0,0:0:0:0:
320,192,9068,1,0,0:0:0:0:
448,192,9170,1,0,0:0:0:0:
320,192,9273,1,0,0:0:0:0:
448,192,9273,128,0,9581:0:0:0:0:
320,192,9581,1,0,0:0:0:0:
192,192,9684,1,0,0:0:0:0:
448,192,9787,1,0,0:0:0:0:
320,192,9787,1,0,0:0:0:0:
64,192,9890,1,0,0:0:0:0:
192,192,9992,1,0,0:0:0:0:
448,192,9992,1,0,0:0:0:0:
320,192,9992,1,0,0:0:0:0:
64,192,10198,1,0,0:0:0:0:
192,192,10198,1,0,0:0:0:0:
320,192,10301,1,0,0:0:0:0:
448,192,10301,1,0,0:0:0:0:
64,192,10506,1,0,0:0:0:0:
192,192,10609,1,0,0:0:0:0:
320,192,10609,1,0,0:0:0:0:
448,192,10609,1,0,0:0:0:0:
64,192,10814,1,0,0:0:0:0:
448,192,10814,1,0,0:0:0:0:
320,192,10814,1,0,0:0:0:0:
192,192,10814,1,0,0:0:0:0:
64,192,11122,1,0,0:0:0:0:
320,192,11122,1,0,0:0:0:0:
448,192,11122,1,0,0:0:0:0:
192,192,11328,1,0,0:0:0:0:
320,192,11328,1,0,0:0:0:0:
448,192,11328,1,0,0:0:0:0:
64,192,11431,1,0,0:0:0:0:
320,192,11636,1,0,0:0:0:0:
448,192,11636,1,0,0:0:0:0:
64,192,11636,1,0,0:0:0:0:
320,192,11842,1,0,0:0:0:0:
448,192,11842,1,0,0:0:0:0:
64,192,11842,1,0,0:0:0:0:
192,192,11842,1,0,0:0:0:0:
448,192,12047,1,0,0:0:0:0:
320,192,12047,1,0,0:0:0:0:
64,192,12047,1,0,0:0:0:0:
192,192,12047,1,0,0:0:0:0:
320,192,12253,1,0,0:0:0:0:
448,192,12253,1,0,0:0:0:0:
64,192,12253,1,0,0:0:0:0:
192,192,12355,1,0,0:0:0:0:
448,192,12458,1,0,0:0:0:0:
320,192,12458,1,0,0:0:0:0:
192,192,12561,1,0,0:0:0:0:
64,192,12561,1,0,0:0:0:0:
320,192,12664,1,0,0:0:0:0:
448,192,12664,1,0,0:0:0:0:
64,192,12766,1,0,0:0:0:0:
192,192,12766,1,0,0:0:0:0:
320,192,12766,1,0,0:0:0:0:
448,192,12766,1,0,0:0:0:0:
64,192,12972,1,0,0:0:0:0:
192,192,12972,1,0,0:0:0:0:
320,192,12972,1,0,0:0:0:0:
448,192,12972,1,0,0:0:0:0:
320,192,13177,1,0,0:0:0:0:
448,192,13177,1,0,0:0:0:0:
64,192,13177,1,0,0:0:0:0:
192,192,13177,1,0,0:0:0:0:
320,192,13280,1,0,0:0:0:0:
448,192,13280,1,0,0:0:0:0:
64,192,13383,1,0,0:0:0:0:
192,192,13383,1,0,0:0:0:0:
320,192,13485,1,0,0:0:0:0:
448,192,13485,1,0,0:0:0:0:
64,192,13588,1,0,0:0:0:0:
192,192,13588,1,0,0:0:0:0:
320,192,13588,1,0,0:0:0:0:
448,192,13691,1,0,0:0:0:0:
64,192,13794,1,0,0:0:0:0:
192,192,13794,1,0,0:0:0:0:
320,192,13794,1,0,0:0:0:0:
448,192,13794,1,0,0:0:0:0:
64,192,13999,128,0,14307:0:0:0:0:
192,192,14205,1,0,0:0:0:0:
320,192,14410,1,0,0:0:0:0:
448,192,14513,128,0,14821:0:0:0:0:
320,192,14718,1,0,0:0:0:0:
192,192,14924,1,0,0:0:0:0:
448,192,15027,1,0,0:0:0:0:
320,192,15129,1,0,0:0:0:0:
192,192,15232,1,0,0:0:0:0:
64,192,15438,1,0,0:0:0:0:
320,192,15438,1,0,0:0:0:0:
192,192,15643,128,0,17287:0:0:0:0:
448,192,15746,1,0,0:0:0:0:
320,192,16876,1,0,0:0:0:0:
64,192,17287,1,0,0:0:0:0:
448,192,17287,128,0,18109:0:0:0:0:
320,192,17698,1,0,0:0:0:0:
320,192,18211,1,0,0:0:0:0:
192,192,18211,128,0,19033:0:0:0:0:
448,192,18622,1,0,0:0:0:0:
448,192,19033,1,0,0:0:0:0:
64,192,19033,128,0,19753:0:0:0:0:
320,192,19444,1,0,0:0:0:0:
192,192,19855,1,0,0:0:0:0:
320,192,20061,1,0,0:0:0:0:
448,192,20061,1,0,0:0:0:0:
192,192,20164,1,0,0:0:0:0:
64,192,20164,1,0,0:0:0:0:
448,192,20266,1,0,0:0:0:0:
320,192,20266,1,0,0:0:0:0:
64,192,20369,1,0,0:0:0:0:
192,192,20369,1,0,0:0:0:0:
448,192,20574,1,0,0:0:0:0:
320,192,20574,1,0,0:0:0:0:
192,192,20780,1,0,0:0:0:0:
64,192,20780,1,0,0:0:0:0:
448,192,20985,1,0,0:0:0:0:
320,192,21088,1,0,0:0:0:0:
192,192,21191,1,0,0:0:0:0:
448,192,21396,1,0,0:0:0:0:
64,192,21602,1,0,0:0:0:0:
320,192,21705,1,0,0:0:0:0:
448,192,21705,1,0,0:0:0:0:
192,192,21910,1,0,0:0:0:0:
448,192,22013,1,0,0:0:0:0:
320,192,22013,1,0,0:0:0:0:
192,192,22116,1,0,0:0:0:0:
320,192,22218,1,0,0:0:0:0:
448,192,22218,1,0,0:0:0:0:
192,192,22218,1,0,0:0:0:0:
448,192,22424,1,0,0:0:0:0:
320,192,22424,1,0,0:0:0:0:
64,192,22732,1,0,0:0:0:0:
448,192,22937,1,0,0:0:0:0:
320,192,22937,1,0,0:0:0:0:
192,192,23040,1,0,0:0:0:0:
448,192,23246,1,0,0:0:0:0:
64,192,23451,1,0,0:0:0:0:
192,192,23554,1,0,0:0:0:0:
320,192,23554,1,0,0:0:0:0:
448,192,23554,1,0,0:0:0:0:
64,192,23759,128,0,24273:0:0:0:0:
448,192,23862,1,0,0:0:0:0:
320,192,24068,1,0,0:0:0:0:
192,192,24170,1,0,0:0:0:0:
448,192,24273,1,0,0:0:0:0:
448,192,24376,128,0,24684:0:0:0:0:
192,192,24479,1,0,0:0:0:0:
320,192,24581,1,0,0:0:0:0:
64,192,24787,1,0,0:0:0:0:
448,192,24787,128,0,25095:0:0:0:0:
192,192,24992,1,0,0:0:0:0:
320,192,25095,1,0,0:0:0:0:
64,192,25198,1,0,0:0:0:0:
448,192,25301,1,0,0:0:0:0:
192,192,25301,1,0,0:0:0:0:
64,192,25506,1,0,0:0:0:0:
192,192,25609,1,0,0:0:0:0:
320,192,25814,1,0,0:0:0:0:
448,192,25814,1,0,0:0:0:0:
64,192,25917,1,0,0:0:0:0:
448,192,26020,1,0,0:0:0:0:
320,192,26122,1,0,0:0:0:0:
192,192,26122,1,0,0:0:0:0:
448,192,26328,1,0,0:0:0:0:
320,192,26431,1,0,0:0:0:0:
192,192,26431,1,0,0:0:0:0:
448,192,26533,1,0,0:0:0:0:
320,192,26533,1,0,0:0:0:0:
64,192,26636,1,0,0:0:0:0:
192,192,26842,1,0,0:0:0:0:
448,192,26842,1,0,0:0:0:0:
64,192,26944,1,0,0:0:0:0:
320,192,27047,1,0,0:0:0:0:
192,192,27047,1,0,0:0:0:0:
448,192,27253,1,0,0:0:0:0:
64,192,27253,128,0,29410:0:0:0:0:
320,192,27355,1,0,0:0:0:0:
192,192,27561,1,0,0:0:0:0:
448,192,27561,1,0,0:0:0:0:
320,192,27664,1,0,0:0:0:0:
192,192,27869,1,0,0:0:0:0:
448,192,27972,1,0,0:0:0:0:
320,192,28074,1,0,0:0:0:0:
192,192,28177,1,0,0:0:0:0:
448,192,28383,1,0,0:0:0:0:
320,192,28485,1,0,0:0:0:0:
192,192,28588,1,0,0:0:0:0:
320,192,28691,1,0,0:0:0:0:
448,192,28794,1,0,0:0:0:0:
192,192,28896,1,0,0:0:0:0:
320,192,28999,1,0,0:0:0:0:
448,192,29205,1,0,0:0:0:0:
192,192,29307,1,0,0:0:0:0:
320,192,29307,1,0,0:0:0:0:
448,192,29616,1,0,0:0:0:0:
192,192,29616,1,0,0:0:0:0:
320,192,29718,1,0,0:0:0:0:
448,192,29718,1,0,0:0:0:0:
64,192,29821,1,0,0:0:0:0:
192,192,29821,1,0,0:0:0:0:
448,192,29924,1,0,0:0:0:0:
320,192,30027,1,0,0:0:0:0:
64,192,30027,1,0,0:0:0:0:
192,192,30027,1,0,0:0:0:0:
320,192,30232,1,0,0:0:0:0:
448,192,30232,1,0,0:0:0:0:
64,192,30232,1,0,0:0:0:0:
192,192,30232,1,0,0:0:0:0:
448,192,30437,1,0,0:0:0:0:
320,192,30437,1,0,0:0:0:0:
64,192,30437,1,0,0:0:0:0:
192,192,30437,1,0,0:0:0:0:
448,192,30643,1,0,0:0:0:0:
320,192,30848,1,0,0:0:0:0:
448,192,30848,1,0,0:0:0:0:
192,192,30848,1,0,0:0:0:0:
448,192,31054,1,0,0:0:0:0:
320,192,31157,1,0,0:0:0:0:
192,192,31259,1,0,0:0:0:0:
448,192,31465,1,0,0:0:0:0:
320,192,31465,1,0,0:0:0:0:
64,192,31568,1,0,0:0:0:0:
448,192,31773,1,0,0:0:0:0:
320,192,31773,1,0,0:0:0:0:
192,192,31876,1,0,0:0:0:0:
64,192,32081,1,0,0:0:0:0:
192,192,32184,1,0,0:0:0:0:
320,192,32287,1,0,0:0:0:0:
448,192,32390,1,0,0:0:0:0:
320,192,32492,1,0,0:0:0:0:
192,192,32595,1,0,0:0:0:0:
64,192,32698,1,0,0:0:0:0:
192,192,32801,1,0,0:0:0:0:
320,192,32903,1,0,0:0:0:0:
448,192,33006,1,0,0:0:0:0:
320,192,33109,1,0,0:0:0:0:
192,192,33211,1,0,0:0:0:0:
64,192,33314,1,0,0:0:0:0:
192,192,33417,1,0,0:0:0:0:
320,192,33520,1,0,0:0:0:0:
448,192,33622,1,0,0:0:0:0:
64,192,33828,1,0,0:0:0:0:
192,192,33931,1,0,0:0:0:0:
320,192,34033,1,0,0:0:0:0:
448,192,34136,1,0,0:0:0:0:
320,192,34239,1,0,0:0:0:0:
192,192,34342,1,0,0:0:0:0:
448,192,34444,1,0,0:0:0:0:
320,192,34547,1,0,0:0:0:0:
448,192,34650,1,0,0:0:0:0:
320,192,34650,1,0,0:0:0:0:
192,192,34650,128,0,35472:0:0:0:0:
448,192,34855,1,0,0:0:0:0:
320,192,34855,1,0,0:0:0:0:
448,192,34958,1,0,0:0:0:0:
320,192,35061,1,0,0:0:0:0:
448,192,35164,1,0,0:0:0:0:
320,192,35266,1,0,0:0:0:0:
448,192,35369,1,0,0:0:0:0:
64,192,35472,1,0,0:0:0:0:
320,192,35472,1,0,0:0:0:0:
192,192,35677,1,0,0:0:0:0:
448,192,35780,1,0,0:0:0:0:
320,192,35883,1,0,0:0:0:0:
64,192,35985,1,0,0:0:0:0:
448,192,36088,1,0,0:0:0:0:
320,192,36191,1,0,0:0:0:0:
192,192,36294,1,0,0:0:0:0:
64,192,36294,1,0,0:0:0:0:
448,192,36396,1,0,0:0:0:0:
64,192,36602,1,0,0:0:0:0:
192,192,36705,1,0,0:0:0:0:
320,192,36705,1,0,0:0:0:0:
448,192,36910,1,0,0:0:0:0:
64,192,36910,1,0,0:0:0:0:
320,192,37013,128,0,37321:0:0:0:0:
64,192,37116,1,0,0:0:0:0:
448,192,37424,1,0,0:0:0:0:
192,192,37424,1,0,0:0:0:0:
64,192,37732,1,0,0:0:0:0:
320,192,37732,128,0,38040:0:0:0:0:
448,192,38040,1,0,0:0:0:0:
192,192,38040,1,0,0:0:0:0:
320,192,38246,1,0,0:0:0:0:
64,192,38246,1,0,0:0:0:0:
448,192,38451,1,0,0:0:0:0:
320,192,38451,1,0,0:0:0:0:
64,192,38451,1,0,0:0:0:0:
448,192,38657,1,0,0:0:0:0:
192,192,38657,1,0,0:0:0:0:
448,192,38862,1,0,0:0:0:0:
64,192,38862,1,0,0:0:0:0:
320,192,38862,1,0,0:0:0:0:
192,192,39068,1,0,0:0:0:0:
320,192,39068,1,0,0:0:0:0:
448,192,39170,1,0,0:0:0:0:
320,192,39273,1,0,0:0:0:0:
192,192,39273,1,0,0:0:0:0:
320,192,39479,1,0,0:0:0:0:
448,192,39479,1,0,0:0:0:0:
64,192,39581,1,0,0:0:0:0:
192,192,39581,1,0,0:0:0:0:
320,192,39684,1,0,0:0:0:0:
448,192,39684,1,0,0:0:0:0:
64,192,39787,1,0,0:0:0:0:
192,192,39787,1,0,0:0:0:0:
448,192,39787,1,0,0:0:0:0:
320,192,39890,1,0,0:0:0:0:
192,192,39992,1,0,0:0:0:0:
64,192,39992,1,0,0:0:0:0:
320,192,39992,1,0,0:0:0:0:
448,192,39992,1,0,0:0:0:0:
320,192,40198,1,0,0:0:0:0:
448,192,40198,1,0,0:0:0:0:
192,192,40198,1,0,0:0:0:0:
64,192,40198,1,0,0:0:0:0:
448,192,40403,1,0,0:0:0:0:
320,192,40506,1,0,0:0:0:0:
64,192,40506,1,0,0:0:0:0:
192,192,40506,1,0,0:0:0:0:
448,192,40711,1,0,0:0:0:0:
320,192,40711,1,0,0:0:0:0:
64,192,40814,1,0,0:0:0:0:
192,192,40917,1,0,0:0:0:0:
320,192,41122,1,0,0:0:0:0:
64,192,41225,1,0,0:0:0:0:
192,192,41328,1,0,0:0:0:0:
448,192,41431,1,0,0:0:0:0:
320,192,41431,1,0,0:0:0:0:
320,192,41636,1,0,0:0:0:0:
448,192,41636,1,0,0:0:0:0:
448,192,41842,1,0,0:0:0:0:
192,192,41944,128,0,42869:0:0:0:0:
320,192,42150,1,0,0:0:0:0:
448,192,42355,1,0,0:0:0:0:
64,192,42458,1,0,0:0:0:0:
320,192,42561,1,0,0:0:0:0:
64,192,42664,1,0,0:0:0:0:
64,192,42869,1,0,0:0:0:0:
320,192,42869,1,0,0:0:0:0:
448,192,42869,128,0,43896:0:0:0:0:
320,192,43280,1,0,0:0:0:0:
320,192,43383,1,0,0:0:0:0:
64,192,43485,1,0,0:0:0:0:
192,192,43485,1,0,0:0:0:0:
320,192,43691,1,0,0:0:0:0:
192,192,43691,1,0,0:0:0:0:
64,192,43794,128,0,44513:0:0:0:0:
320,192,44102,1,0,0:0:0:0:
448,192,44102,1,0,0:0:0:0:
448,192,44205,1,0,0:0:0:0:
320,192,44307,1,0,0:0:0:0:
448,192,44513,1,0,0:0:0:0:
320,192,44513,1,0,0:0:0:0:
192,192,44513,128,0,45437:0:0:0:0:
448,192,44821,1,0,0:0:0:0:
320,192,44821,1,0,0:0:0:0:
64,192,44924,1,0,0:0:0:0:
448,192,45027,1,0,0:0:0:0:
320,192,45027,1,0,0:0:0:0:
64,192,45129,1,0,0:0:0:0:
64,192,45335,1,0,0:0:0:0:
320,192,45335,1,0,0:0:0:0:
448,192,45335,128,0,46157:0:0:0:0:
320,192,45746,1,0,0:0:0:0:
320,192,45951,1,0,0:0:0:0:
192,192,45951,1,0,0:0:0:0:
320,192,46157,1,0,0:0:0:0:
64,192,46157,128,0,46876:0:0:0:0:
320,192,46465,1,0,0:0:0:0:
448,192,46465,1,0,0:0:0:0:
320,192,46670,1,0,0:0:0:0:
448,192,46670,1,0,0:0:0:0:
192,192,46876,1,0,0:0:0:0:
448,192,46876,1,0,0:0:0:0:
64,192,46979,1,0,0:0:0:0:
192,192,47081,1,0,0:0:0:0:
320,192,47184,1,0,0:0:0:0:
448,192,47287,1,0,0:0:0:0:
320,192,47390,1,0,0:0:0:0:
192,192,47492,1,0,0:0:0:0:
64,192,47595,1,0,0:0:0:0:
192,192,47698,1,0,0:0:0:0:
320,192,47801,1,0,0:0:0:0:
448,192,47903,1,0,0:0:0:0:
320,192,48006,1,0,0:0:0:0:
192,192,48109,1,0,0:0:0:0:
64,192,48211,1,0,0:0:0:0:
192,192,48314,1,0,0:0:0:0:
320,192,48417,1,0,0:0:0:0:
448,192,48520,1,0,0:0:0:0:
320,192,48622,1,0,0:0:0:0:
64,192,48622,1,0,0:0:0:0:
64,192,48931,1,0,0:0:0:0:
64,192,49136,1,0,0:0:0:0:
192,192,49342,1,0,0:0:0:0:
448,192,49444,1,0,0:0:0:0:
448,192,49753,1,0,0:0:0:0:
320,192,49958,1,0,0:0:0:0:
192,192,50164,1,0,0:0:0:0:
320,192,50164,1,0,0:0:0:0:
448,192,50164,128,0,51088:0:0:0:0:
320,192,50574,1,0,0:0:0:0:
64,192,50574,1,0,0:0:0:0:
320,192,50780,1,0,0:0:0:0:
64,192,50780,1,0,0:0:0:0:
320,192,50985,1,0,0:0:0:0:
192,192,51088,128,0,51705:0:0:0:0:
448,192,51396,1,0,0:0:0:0:
320,192,51602,1,0,0:0:0:0:
448,192,51602,1,0,0:0:0:0:
64,192,51807,1,0,0:0:0:0:
192,192,51910,1,0,0:0:0:0:
320,192,51910,1,0,0:0:0:0:
448,192,51910,1,0,0:0:0:0:
448,192,52116,1,0,0:0:0:0:
64,192,52116,1,0,0:0:0:0:
192,192,52218,1,0,0:0:0:0:
320,192,52218,1,0,0:0:0:0:
448,192,52424,1,0,0:0:0:0:
320,192,52527,1,0,0:0:0:0:
192,192,52527,1,0,0:0:0:0:
448,192,52732,1,0,0:0:0:0:
320,192,52732,1,0,0:0:0:0:
192,192,52835,1,0,0:0:0:0:
64,192,52937,1,0,0:0:0:0:
320,192,53040,1,0,0:0:0:0:
448,192,53040,1,0,0:0:0:0:
64,192,53246,1,0,0:0:0:0:
192,192,53246,1,0,0:0:0:0:
320,192,53246,1,0,0:0:0:0:
448,192,53348,1,0,0:0:0:0:
448,192,53451,1,0,0:0:0:0:
64,192,53554,1,0,0:0:0:0:
320,192,53657,1,0,0:0:0:0:
448,192,53657,1,0,0:0:0:0:
64,192,53759,1,0,0:0:0:0:
192,192,53862,1,0,0:0:0:0:
320,192,53862,1,0,0:0:0:0:
448,192,53862,1,0,0:0:0:0:
64,192,54068,1,0,0:0:0:0:
448,192,54068,1,0,0:0:0:0:
320,192,54068,1,0,0:0:0:0:
192,192,54273,1,0,0:0:0:0:
64,192,54273,1,0,0:0:0:0:
320,192,54273,1,0,0:0:0:0:
448,192,54273,1,0,0:0:0:0:
448,192,54479,1,0,0:0:0:0:
320,192,54479,1,0,0:0:0:0:
64,192,54581,1,0,0:0:0:0:
192,192,54684,1,0,0:0:0:0:
320,192,54684,1,0,0:0:0:0:
448,192,54684,1,0,0:0:0:0:
64,192,54890,1,0,0:0:0:0:
192,192,54890,1,0,0:0:0:0:
448,192,54890,1,0,0:0:0:0:
320,192,54890,1,0,0:0:0:0:
192,192,55095,1,0,0:0:0:0:
448,192,55095,1,0,0:0:0:0:
64,192,55095,128,0,55506:0:0:0:0:
320,192,55301,1,0,0:0:0:0:
320,192,55506,1,0,0:0:0:0:
192,192,55506,1,0,0:0:0:0:
448,192,55711,1,0,0:0:0:0:
192,192,55814,1,0,0:0:0:0:
320,192,55917,1,0,0:0:0:0:
448,192,55917,128,0,56225:0:0:0:0:
192,192,56020,1,0,0:0:0:0:
320,192,56020,1,0,0:0:0:0:
320,192,56225,1,0,0:0:0:0:
192,192,56328,1,0,0:0:0:0:
448,192,56431,1,0,0:0:0:0:
320,192,56431,1,0,0:0:0:0:
192,192,56636,1,0,0:0:0:0:
448,192,56636,1,0,0:0:0:0:
320,192,56739,1,0,0:0:0:0:
64,192,56842,128,0,57664:0:0:0:0:
448,192,57047,1,0,0:0:0:0:
320,192,57253,1,0,0:0:0:0:
192,192,57253,1,0,0:0:0:0:
448,192,57355,1,0,0:0:0:0:
192,192,57561,1,0,0:0:0:0:
320,192,57561,1,0,0:0:0:0:
448,192,57664,128,0,57972:0:0:0:0:
192,192,57869,1,0,0:0:0:0:
320,192,57869,1,0,0:0:0:0:
448,192,58074,1,0,0:0:0:0:
320,192,58074,1,0,0:0:0:0:
64,192,58074,1,0,0:0:0:0:
192,192,58074,1,0,0:0:0:0:
320,192,58280,1,0,0:0:0:0:
448,192,58280,1,0,0:0:0:0:
64,192,58280,1,0,0:0:0:0:
192,192,58280,1,0,0:0:0:0:
320,192,58485,1,0,0:0:0:0:
448,192,58485,1,0,0:0:0:0:
192,192,58485,1,0,0:0:0:0:
64,192,58485,1,0,0:0:0:0:
448,192,58691,1,0,0:0:0:0:
320,192,58794,1,0,0:0:0:0:
192,192,58896,1,0,0:0:0:0:
448,192,58999,1,0,0:0:0:0:
320,192,59102,1,0,0:0:0:0:
192,192,59205,1,0,0:0:0:0:
64,192,59205,128,0,59821:0:0:0:0:
320,192,59513,1,0,0:0:0:0:
448,192,59513,1,0,0:0:0:0:
448,192,59718,1,0,0:0:0:0:
192,192,59718,1,0,0:0:0:0:
320,192,59821,1,0,0:0:0:0:
448,192,59924,1,0,0:0:0:0:
192,192,59924,1,0,0:0:0:0:
448,192,60129,1,0,0:0:0:0:
64,192,60129,1,0,0:0:0:0:
320,192,60129,1,0,0:0:0:0:
192,192,60232,1,0,0:0:0:0:
320,192,60335,1,0,0:0:0:0:
448,192,60335,1,0,0:0:0:0:
64,192,60437,1,0,0:0:0:0:
192,192,60437,1,0,0:0:0:0:
448,192,60437,1,0,0:0:0:0:
320,192,60437,1,0,0:0:0:0:
64,192,60643,1,0,0:0:0:0:
192,192,60643,1,0,0:0:0:0:
448,192,60643,1,0,0:0:0:0:
320,192,60643,1,0,0:0:0:0:
448,192,60848,1,0,0:0:0:0:
320,192,60848,1,0,0:0:0:0:
192,192,60848,1,0,0:0:0:0:
64,192,60848,1,0,0:0:0:0:
448,192,61054,1,0,0:0:0:0:
320,192,61157,1,0,0:0:0:0:
192,192,61157,1,0,0:0:0:0:
64,192,61259,1,0,0:0:0:0:
448,192,61259,1,0,0:0:0:0:
320,192,61362,1,0,0:0:0:0:
192,192,61362,1,0,0:0:0:0:
448,192,61568,1,0,0:0:0:0:
64,192,61568,1,0,0:0:0:0:
320,192,61568,1,0,0:0:0:0:
64,192,61773,1,0,0:0:0:0:
448,192,61773,1,0,0:0:0:0:
192,192,61773,1,0,0:0:0:0:
320,192,61773,1,0,0:0:0:0:
448,192,61979,1,0,0:0:0:0:
64,192,62184,1,0,0:0:0:0:
448,192,62287,1,0,0:0:0:0:
320,192,62390,1,0,0:0:0:0:
192,192,62595,1,0,0:0:0:0:
448,192,62595,1,0,0:0:0:0:
320,192,62903,1,0,0:0:0:0:
64,192,63006,1,0,0:0:0:0:
320,192,63109,1,0,0:0:0:0:
64,192,63211,1,0,0:0:0:0:
448,192,63417,1,0,0:0:0:0:
192,192,63417,1,0,0:0:0:0:
320,192,63622,1,0,0:0:0:0:
64,192,63725,1,0,0:0:0:0:
448,192,63828,1,0,0:0:0:0:
320,192,63931,1,0,0:0:0:0:
192,192,64033,1,0,0:0:0:0:
448,192,64136,1,0,0:0:0:0:
320,192,64239,1,0,0:0:0:0:
192,192,64342,1,0,0:0:0:0:
64,192,64547,1,0,0:0:0:0:
448,192,64547,1,0,0:0:0:0:
320,192,64547,1,0,0:0:0:0:
64,192,64753,1,0,0:0:0:0:
320,192,64753,1,0,0:0:0:0:
448,192,64753,1,0,0:0:0:0:
192,192,64753,1,0,0:0:0:0:
64,192,64958,128,0,65369:0:0:0:0:
320,192,64958,128,0,65369:0:0:0:0:
192,192,65369,1,0,0:0:0:0:
448,192,65369,1,0,0:0:0:0:
64,192,65574,128,0,65883:0:0:0:0:
320,192,65574,128,0,65883:0:0:0:0:
192,192,65883,1,0,0:0:0:0:
448,192,65883,1,0,0:0:0:0:
64,192,66088,1,0,0:0:0:0:
320,192,66088,1,0,0:0:0:0:
448,192,66294,1,0,0:0:0:0:
192,192,66294,1,0,0:0:0:0:
320,192,66499,1,0,0:0:0:0:
64,192,66499,1,0,0:0:0:0:
192,192,66705,1,0,0:0:0:0:
448,192,66705,1,0,0:0:0:0:
320,192,66705,1,0,0:0:0:0:
320,192,66910,1,0,0:0:0:0:
448,192,66910,1,0,0:0:0:0:
64,192,67116,1,0,0:0:0:0:
192,192,67116,1,0,0:0:0:0:
320,192,67218,1,0,0:0:0:0:
448,192,67218,1,0,0:0:0:0:
64,192,67424,1,0,0:0:0:0:
192,192,67424,1,0,0:0:0:0:
320,192,67424,1,0,0:0:0:0:
448,192,67424,1,0,0:0:0:0:
64,192,67629,1,0,0:0:0:0:
192,192,67629,1,0,0:0:0:0:
448,192,67629,1,0,0:0:0:0:
320,192,67629,1,0,0:0:0:0:
320,192,67835,1,0,0:0:0:0:
448,192,67835,1,0,0:0:0:0:
64,192,67835,1,0,0:0:0:0:
192,192,67835,1,0,0:0:0:0:
320,192,68040,1,0,0:0:0:0:
448,192,68040,1,0,0:0:0:0:
64,192,68143,1,0,0:0:0:0:
192,192,68143,1,0,0:0:0:0:
448,192,68246,128,0,68554:0:0:0:0:
64,192,68348,1,0,0:0:0:0:
192,192,68348,1,0,0:0:0:0:
320,192,68657,1,0,0:0:0:0:
64,192,68862,1,0,0:0:0:0:
192,192,69170,1,0,0:0:0:0:
320,192,69273,1,0,0:0:0:0:
448,192,69479,1,0,0:0:0:0:
320,192,69684,1,0,0:0:0:0:
192,192,69787,1,0,0:0:0:0:
448,192,69890,1,0,0:0:0:0:
320,192,69992,1,0,0:0:0:0:
64,192,70095,1,0,0:0:0:0:
192,192,70095,1,0,0:0:0:0:
448,192,70095,1,0,0:0:0:0:
320,192,70198,1,0,0:0:0:0:
64,192,70301,1,0,0:0:0:0:
192,192,70301,1,0,0:0:0:0:
448,192,70301,1,0,0:0:0:0:
320,192,70301,1,0,0:0:0:0:
448,192,70506,1,0,0:0:0:0:
320,192,70609,1,0,0:0:0:0:
64,192,70609,1,0,0:0:0:0:
192,192,70609,1,0,0:0:0:0:
448,192,70814,1,0,0:0:0:0:
320,192,70917,1,0,0:0:0:0:
64,192,70917,1,0,0:0:0:0:
448,192,71122,1,0,0:0:0:0:
320,192,71122,1,0,0:0:0:0:
64,192,71225,1,0,0:0:0:0:
320,192,71328,1,0,0:0:0:0:
192,192,71328,1,0,0:0:0:0:
448,192,71328,1,0,0:0:0:0:
64,192,71533,1,0,0:0:0:0:
192,192,71636,1,0,0:0:0:0:
320,192,71739,1,0,0:0:0:0:
448,192,71739,1,0,0:0:0:0:
64,192,71842,1,0,0:0:0:0:
192,192,71944,1,0,0:0:0:0:
448,192,72047,1,0,0:0:0:0:
320,192,72047,1,0,0:0:0:0:
448,192,72150,1,0,0:0:0:0:
64,192,72253,1,0,0:0:0:0:
320,192,72253,1,0,0:0:0:0:
192,192,72355,1,0,0:0:0:0:
320,192,72355,1,0,0:0:0:0:
64,192,72561,1,0,0:0:0:0:
448,192,72561,1,0,0:0:0:0:
192,192,72664,1,0,0:0:0:0:
64,192,72766,1,0,0:0:0:0:
448,192,72766,1,0,0:0:0:0:
320,192,72766,1,0,0:0:0:0:
192,192,72869,1,0,0:0:0:0:
64,192,72972,1,0,0:0:0:0:
192,192,73074,1,0,0:0:0:0:
320,192,73177,1,0,0:0:0:0:
448,192,73280,1,0,0:0:0:0:
320,192,73383,1,0,0:0:0:0:
192,192,73485,1,0,0:0:0:0:
64,192,73588,1,0,0:0:0:0:
192,192,73588,128,0,78622:0:0:0:0:
320,192,73588,128,0,78622:0:0:0:0:
448,192,73588,128,0,78622:0:0:0:0:
